<?xml version="1.0" standalone="no"?>
<!DOCTYPE svg PUBLIC "-//W3C//DTD SVG 1.1//EN" "http://www.w3.org/Graphics/SVG/1.1/DTD/svg11.dtd" >
<svg xmlns="http://www.w3.org/2000/svg">
<metadata>Generated by IcoMoon</metadata>
<defs>
<font id="icomoon" horiz-adv-x="1024">
<font-face units-per-em="1024" ascent="960" descent="-64" />
<missing-glyph horiz-adv-x="1024" />
<glyph unicode="&#x20;" horiz-adv-x="512" d="" />
<glyph unicode="&#xe900;" horiz-adv-x="989" d="M357.15 460.306c32.048-65.522 85.161-118.392 150.828-150.14 4.802-2.278 10.116-3.263 15.42-2.864 5.3 0.403 10.406 2.175 14.813 5.152l96.69 64.473c4.276 2.853 9.195 4.59 14.315 5.060 5.116 0.473 10.272-0.343 14.996-2.366l180.888-77.524c6.144-2.609 11.275-7.147 14.618-12.927 3.34-5.78 4.714-12.489 3.912-19.117-5.717-44.738-27.546-85.857-61.398-115.663-33.852-29.802-77.407-46.242-122.509-46.246-139.303 0-272.9 55.338-371.402 153.84s-153.84 232.098-153.84 371.401c0.002 45.102 16.444 88.657 46.248 122.51s70.923 55.681 115.662 61.398c6.628 0.802 13.337-0.572 19.116-3.914s10.316-8.472 12.926-14.617l77.592-181.046c2.006-4.683 2.825-9.789 2.38-14.864-0.445-5.078-2.136-9.965-4.926-14.227l-64.251-98.173c-2.927-4.414-4.654-9.516-5.018-14.799-0.367-5.286 0.646-10.572 2.938-15.349z" />
<glyph unicode="&#xe901;" horiz-adv-x="989" d="M679.724 139.042c37.584 0.004 73.883 13.704 102.093 38.541 28.142 24.774 46.292 58.94 51.112 96.115l-180.888 77.524-96.634-64.438c-8.835-5.939-19.061-9.484-29.678-10.289-10.653-0.805-21.331 1.176-30.981 5.752l-0.219 0.102c-71.895 34.763-130.044 92.647-165.133 164.384l-0.104 0.212c-4.602 9.597-6.636 20.219-5.904 30.837 0.73 10.583 4.183 20.794 10.025 29.647l64.214 98.12-77.598 181.063zM320.028 786.611c-37.175-4.82-71.333-22.99-96.108-51.131-24.837-28.212-38.539-64.509-38.541-102.095 0-131.109 52.083-256.846 144.79-349.553s218.447-144.79 349.554-144.79zM312.681 847.967c13.278 1.607 26.718-1.145 38.296-7.841 11.562-6.686 20.64-16.943 25.873-29.23l0.021-0.053 77.552-180.955c4.015-9.366 5.65-19.579 4.763-29.729-0.89-10.152-4.276-19.926-9.855-28.453l-64.251-98.17c28.969-59.025 76.832-106.68 135.984-135.38l96.697 64.477c8.552 5.703 18.39 9.181 28.626 10.123 10.236 0.939 20.547-0.689 29.996-4.739l180.842-77.503c12.288-5.233 22.549-14.311 29.237-25.875 6.698-11.578 9.449-25.021 7.842-38.298l-0.025-0.205c-6.67-52.192-32.136-100.165-71.631-134.935s-90.306-53.951-142.926-53.954c-147.495 0-288.952 58.594-393.249 162.89-104.296 104.296-162.889 245.749-162.889 393.248 0.003 52.618 19.185 103.432 53.954 142.926s82.742 64.959 134.935 71.63l0.205 0.025z" />
<glyph unicode="&#xe902;" horiz-adv-x="989" d="M585.845 795.896c4.431 16.478 21.38 26.244 37.86 21.812 57.605-15.492 110.129-45.849 152.308-88.030 42.182-42.18 72.538-94.703 88.029-152.308 4.435-16.479-5.332-33.428-21.811-37.86-16.476-4.431-33.428 5.332-37.86 21.811-12.68 47.149-37.528 90.138-72.051 124.663s-77.513 59.37-124.663 72.051c-16.479 4.431-26.243 21.382-21.811 37.86z" />
<glyph unicode="&#xe903;" horiz-adv-x="989" d="M553.85 676.482c4.431 16.478 21.384 26.244 37.86 21.812 36.656-9.858 70.077-29.174 96.916-56.014s46.154-60.26 56.013-96.916c4.431-16.476-5.335-33.428-21.811-37.86-16.479-4.431-33.428 5.335-37.863 21.811-7.044 26.2-20.851 50.088-40.035 69.272-19.181 19.182-43.068 32.988-69.268 40.033-16.476 4.432-26.243 21.383-21.811 37.86z" />
<glyph unicode="&#xe904;" glyph-name="twitter" d="M896.003 704.274c-29.184-12.932-60.535-21.67-93.495-25.619 34.007 20.349 59.45 52.376 71.581 90.104-31.952-18.978-66.918-32.337-103.386-39.495-24.521 26.183-57.003 43.538-92.399 49.369s-71.728-0.186-103.352-17.118c-31.628-16.933-56.777-43.833-71.547-76.524-14.773-32.691-18.336-69.345-10.144-104.271-64.737 3.253-128.072 20.077-185.889 49.39-57.816 29.312-108.823 70.453-149.71 120.753-13.981-24.116-22.019-52.077-22.019-81.855-0.015-26.807 6.586-53.205 19.219-76.849s30.906-43.803 53.2-58.692c-25.854 0.823-51.138 7.81-73.747 20.378v-2.096c-0.002-37.598 13.003-74.042 36.81-103.141 23.807-29.102 56.949-49.070 93.802-56.518-23.984-6.489-49.129-7.448-73.537-2.796 10.398-32.352 30.652-60.641 57.927-80.91s60.205-31.498 94.181-32.123c-57.676-45.274-128.904-69.833-202.228-69.728-12.988-0.003-25.966 0.754-38.866 2.273 74.427-47.855 161.067-73.254 249.552-73.155 299.53 0 463.278 248.084 463.278 463.244 0 6.991-0.177 14.049-0.492 21.040 31.85 23.034 59.344 51.557 81.193 84.232l0.068 0.105z" />
<glyph unicode="&#xe905;" glyph-name="chevron-down" d="M169.372 598.627c12.497 12.496 32.758 12.496 45.255 0l297.372-297.373 297.373 297.373c12.496 12.496 32.758 12.496 45.254 0s12.496-32.758 0-45.254l-320-320c-12.496-12.496-32.758-12.496-45.254 0l-320 320c-12.497 12.496-12.497 32.758 0 45.254z" />
<glyph unicode="&#xe906;" glyph-name="check" d="M883.507 691.503c16.661-16.663 16.661-43.677 0-60.34l-469.333-469.333c-16.662-16.661-43.677-16.661-60.339 0l-213.338 213.333c-16.663 16.661-16.663 43.678-0.001 60.339s43.677 16.661 60.34 0l183.168-183.164 439.164 439.164c16.661 16.662 43.674 16.662 60.339 0z" />
<glyph unicode="&#xe907;" glyph-name="facebook" d="M704.372 411.225l22.047 143.616h-137.813v93.199c0 39.283 19.244 77.599 80.971 77.599h62.645v122.264c0 0-56.842 9.697-111.203 9.697-113.483 0-187.662-68.795-187.662-193.316v-109.467h-126.157v-143.616h126.157v-347.201h155.249v347.201l115.767 0.024z" />
<glyph unicode="&#xe908;" glyph-name="xmark" d="M319.197 640.803c15.996 15.996 41.93 15.996 57.926 0l134.876-134.878 134.877 134.878c15.995 15.996 41.931 15.996 57.926 0s15.995-41.93 0-57.926l-134.877-134.877 134.877-134.877c15.995-15.995 15.995-41.931 0-57.926s-41.931-15.995-57.926 0l-134.877 134.877-134.877-134.877c-15.996-15.995-41.93-15.995-57.926 0s-15.996 41.931 0 57.926l134.878 134.877-134.877 134.877c-15.996 15.996-15.996 41.93 0 57.926z" />
<glyph unicode="&#xe909;" glyph-name="file-arrow-up" d="M98.068 918.82c14.225 14.225 33.518 22.217 53.635 22.217h455.149c10.058 0 19.703-3.996 26.817-11.108l265.481-265.481c7.111-7.113 11.109-16.759 11.109-26.818v-606.815c0-9.959-1.965-19.824-5.776-29.029-3.812-9.201-9.398-17.563-16.441-24.606s-15.406-12.633-24.61-16.445c-9.201-3.812-19.065-5.772-29.025-5.772h-682.705c-20.117 0-39.41 7.991-53.635 22.217s-22.216 33.519-22.216 53.635v834.37c0 20.117 7.991 39.41 22.216 53.635zM591.144 865.185h-439.44v-834.37h682.705v591.106l-243.264 243.265zM606.853 941.037c20.946 0 37.926-16.98 37.926-37.926v-227.556h227.593c20.946 0 37.926-16.98 37.926-37.926s-16.979-37.926-37.926-37.926h-265.519c-20.946 0-37.926 16.98-37.926 37.926v265.481c0 20.946 16.979 37.926 37.926 37.926zM466.258 512.743c14.81 14.81 38.825 14.81 53.635 0l132.741-132.741c14.81-14.81 14.81-38.825 0-53.635s-38.825-14.81-53.635 0l-105.923 105.923-105.924-105.923c-14.811-14.81-38.824-14.81-53.635 0s-14.811 38.825 0 53.635l132.742 132.741zM493.075 523.852c20.946 0 37.926-16.979 37.926-37.926v-303.407c0-20.946-16.979-37.926-37.926-37.926s-37.926 16.979-37.926 37.926v303.407c0 20.946 16.979 37.926 37.926 37.926z" />
<glyph unicode="&#xe90a;" d="M834.408-7.111h-682.705c-10.059 0-19.705 3.997-26.818 11.109s-11.108 16.759-11.108 26.817v834.37c0 10.059 3.996 19.705 11.108 26.818s16.759 11.108 26.818 11.108h455.149l265.481-265.481v-606.815c0-4.98-0.982-9.914-2.886-14.514-1.908-4.6-4.703-8.784-8.222-12.303-3.523-3.523-7.703-6.315-12.303-8.222-4.604-1.904-9.535-2.886-14.514-2.886z" />
<glyph unicode="&#xe90b;" d="M606.853 903.111v-265.481h265.519l-265.519 265.481z" />
<glyph unicode="&#xe90c;" d="M98.068 918.82c14.225 14.225 33.518 22.217 53.635 22.217h455.149c10.058 0 19.703-3.996 26.817-11.108l265.481-265.481c7.111-7.113 11.109-16.759 11.109-26.818v-606.815c0-9.959-1.965-19.824-5.776-29.029-3.812-9.201-9.398-17.563-16.441-24.606s-15.406-12.633-24.61-16.445c-9.201-3.812-19.065-5.772-29.025-5.772h-682.705c-20.117 0-39.41 7.991-53.635 22.217s-22.216 33.519-22.216 53.635v834.37c0 20.117 7.991 39.41 22.216 53.635zM591.144 865.185h-439.44v-834.37h682.705v591.106l-243.264 243.265z" />
<glyph unicode="&#xe90d;" d="M606.853 941.037c20.946 0 37.926-16.98 37.926-37.926v-227.556h227.593c20.946 0 37.926-16.98 37.926-37.926s-16.979-37.926-37.926-37.926h-265.519c-20.946 0-37.926 16.98-37.926 37.926v265.481c0 20.946 16.979 37.926 37.926 37.926z" />
<glyph unicode="&#xe90e;" glyph-name="instagram" d="M333.815 857.6c-127.595 0-231.415-103.881-231.415-231.508v-330.648c0-127.611 103.881-231.444 231.508-231.444h330.648c127.611 0 231.444 103.881 231.444 231.509v330.676c0 127.595-103.881 231.415-231.509 231.415h-330.676zM737.28 730.624c17.524 0 31.744-14.221 31.744-31.744s-14.22-31.744-31.744-31.744c-17.524 0-31.744 14.221-31.744 31.744s14.22 31.744 31.744 31.744zM499.2 667.136c113.804 0 206.336-92.532 206.336-206.336s-92.549-206.336-206.336-206.336c-113.804 0-206.336 92.549-206.336 206.336s92.532 206.336 206.336 206.336zM499.2 603.648c-78.899 0-142.848-63.949-142.848-142.848s63.949-142.848 142.848-142.848c78.899 0 142.848 63.949 142.848 142.848s-63.949 142.848-142.848 142.848z" />
<glyph unicode="&#xe90f;" glyph-name="telegram" d="M155.873 498.135c244.208 106.929 560.214 237.297 603.85 255.345 114.418 47.223 149.528 38.182 132.024-66.418-12.575-75.181-48.841-324.057-77.769-478.975-17.152-91.873-55.654-102.758-116.163-63.010-29.102 19.125-176.012 115.831-207.91 138.537-29.102 20.692-69.246 45.588-18.903 94.621 17.923 17.456 135.345 129.082 226.847 215.945 11.984 11.407-3.075 30.15-16.91 21.006-123.327-81.408-294.308-194.386-316.075-209.097-32.875-22.221-64.458-32.41-121.126-16.203-42.833 12.24-84.652 26.846-100.933 32.41-62.712 21.419-47.829 49.169 13.066 75.841z" />
<glyph unicode="&#xe910;" d="M141.242 468.597c-0.142-54.371 12.562-108.011 37.076-156.541 29.066-58.16 73.75-107.075 129.047-141.273 55.296-34.195 119.021-52.323 184.038-52.348 54.371-0.141 108.011 12.563 156.541 37.076l234.814-78.269-78.269 234.814c24.512 48.531 37.217 102.17 37.076 156.541-0.025 65.017-18.153 128.742-52.348 184.038-34.198 55.297-83.113 99.981-141.273 129.047-48.531 24.514-102.17 37.217-156.541 37.076h-20.597c-85.868-4.737-166.968-40.98-227.776-101.788s-97.051-141.909-101.788-227.776v-20.597z" />
<glyph unicode="&#xe911;" d="M491.403 792.276c178.762 0 323.676-144.916 323.676-323.679 0-48.255-8.676-84.416-17.027-108.078-4.181-11.85-8.294-20.6-11.225-26.193-1.465-2.793-2.634-4.799-3.369-5.999-0.367-0.604-0.621-1.006-0.752-1.204-0.042-0.064-0.071-0.109-0.085-0.131-4.668-6.833-5.876-15.459-3.259-23.312l61.525-184.567-184.567 61.521c-8.121 2.708-17.044 1.321-23.958-3.711-0.060-0.042-0.117-0.085-0.177-0.131l15.759-21.282c-15.759 21.282-15.731 21.306-15.72 21.313l0.035 0.025 0.035 0.028c-0.152-0.106-0.494-0.339-1.031-0.681-1.066-0.689-2.899-1.815-5.508-3.241-5.219-2.853-13.549-6.91-25.099-11.052-23.047-8.273-59.159-16.981-109.254-16.981-178.764 0-323.679 144.914-323.679 323.676 0 178.764 144.916 323.679 323.679 323.679zM833.395 309.082c0.113 0.215 0.226 0.431 0.343 0.653 4.018 7.669 9.174 18.743 14.262 33.156 10.187 28.863 20.046 70.974 20.046 125.705 0 208.016-168.628 376.645-376.641 376.645-208.016 0-376.645-168.629-376.645-376.645 0-208.013 168.629-376.641 376.645-376.641 56.38 0 98.537 9.827 127.145 20.092 14.276 5.124 25.116 10.335 32.613 14.435 0.018 0.007 0.032 0.018 0.049 0.025l223.176-74.392c9.516-3.171 20.007-0.696 27.101 6.398 7.090 7.094 9.569 17.585 6.395 27.101l-74.487 223.469zM632.362 176.922c-0.014-0.011-0.035-0.025-0.067-0.046l0.067 0.046c0.025 0.018 0.011 0.011 0 0zM320.736 550.99c0 14.626 11.857 26.483 26.483 26.483h288.368c14.626 0 26.483-11.857 26.483-26.483s-11.857-26.483-26.483-26.483h-288.368c-14.626 0-26.483 11.857-26.483 26.483zM320.736 386.207c0 14.626 11.857 26.483 26.483 26.483h205.978c14.626 0 26.483-11.857 26.483-26.483s-11.857-26.483-26.483-26.483h-205.978c-14.626 0-26.483 11.857-26.483 26.483z" />
<glyph unicode="&#xe912;" d="M841.562 777.569l-700.321-288.369 288.369-123.586 123.586-288.365 288.365 700.321z" />
<glyph unicode="&#xe913;" d="M860.291 796.294c7.56-7.56 9.83-18.924 5.759-28.809l-288.365-700.321c-4.061-9.859-13.637-16.324-24.301-16.398-10.66-0.078-20.328 6.246-24.53 16.049l-119.413 278.63-278.632 119.413c-9.8 4.202-16.126 13.87-16.050 24.534 0.076 10.66 6.539 20.236 16.399 24.297l700.323 288.368c9.883 4.071 21.25 1.798 28.81-5.762zM209.61 488.713l230.431-98.756c6.25-2.68 11.232-7.659 13.909-13.912l98.756-230.428 240.17 583.264-583.267-240.168z" />
<glyph unicode="&#xe914;" glyph-name="xmark-lg" d="M183.164 776.837c16.662 16.662 43.677 16.662 60.34 0l268.496-268.497 268.497 268.497c16.661 16.662 43.678 16.662 60.339 0s16.661-43.677 0-60.34l-268.497-268.497 268.497-268.497c16.666-16.661 16.666-43.678 0-60.339-16.661-16.661-43.678-16.661-60.339 0l-268.497 268.497-268.497-268.497c-16.663-16.661-43.677-16.661-60.34 0s-16.662 43.678 0 60.339l268.497 268.497-268.497 268.497c-16.663 16.663-16.663 43.677 0 60.34z" />
</font>
</defs>
</svg>
